[TR24][SM] Krumkac - Honar i krou - 2018 (Atmospheric/Kryvian Black metal, Pagan metal)

Страницы:  1

Ответить
Автор
Сообщение

_MetalManiac_

Стаж: 7 лет 10 месяцев

Сообщений: 143


_MetalManiac_ · 08-Окт-18 18:03 (6 месяцев назад, ред. 14-Мар-19 18:57)

Krumkač / Honar i kroŭ
Формат записи/Источник записи:[TR24][SM]
Наличие водяных знаков: Нет
Год издания/переиздания диска: 2018
Жанр: Atmospheric/Kryvian Black metal, Pagan metal
Продолжительность: 00:41:39
Наличие сканов в содержимом раздачи: нет
Треклист:
1. Zakon zbroi 06:01
2. Krylami bielymi 12:13
3. Sciah vajny 10:23
4. Pad čornym soncam 09:40
5. Pamiać u majoj kryvi 03:22
Контейнер: FLAC (*.flac)
Тип рипа: tracks
Разрядность: 24/96
Формат: PCM
Количество каналов: 2.0
Лог проверки качества
[spoiler ="Лог проверки качества"][pre]foobar2000 1.3.19 / Dynamic Range Meter 1.1.1
log date: 2018-10-08 15:36:21
--------------------------------------------------------------------------------
Analyzed: Krumkač / Honar i kroŭ
--------------------------------------------------------------------------------
DR Peak RMS Duration Track
--------------------------------------------------------------------------------
DR7 -0.23 dB -9.24 dB 6:01 01-Zakon zbroi
DR7 -0.22 dB -7.78 dB 12:14 02-Kryłami bełymi
DR6 -0.22 dB -7.52 dB 10:24 03-Sciah vajny
DR6 -0.23 dB -6.64 dB 9:41 04-Pad čornym soncam
DR7 -0.23 dB -10.39 dB 3:22 05-Pamiać u majoj kryvi
--------------------------------------------------------------------------------
Number of tracks: 5
Official DR value: DR7
Samplerate: 96000 Hz
Channels: 2
Bits per sample: 24
Bitrate: 2723 kbps
Codec: FLAC
================================================================================
Скриншот спектра частот
Источник (релизер): Студийные файлы
Об исполнителе (группе)
Download
Для скачивания .torrent файлов необходима регистрация
Сайт не распространяет и не хранит электронные версии произведений, а лишь предоставляет доступ к создаваемому пользователями каталогу ссылок на торрент-файлы, которые содержат только списки хеш-сумм
[Профиль]  [ЛС] 

hagnir

Moderator

Стаж: 11 лет 10 месяцев

Сообщений: 28085

hagnir · 11-Мар-19 23:53 (спустя 5 месяцев 3 дня)

[Цитировать] 





[Профиль]  [ЛС] 

БАНДЖОРНА

Стаж: 8 лет 1 месяц

Сообщений: 14


БАНДЖОРНА · 17-Мар-19 12:09 (спустя 5 дней, ред. 17-Мар-19 12:09)

[Цитировать] 

Норм зашло. Все очень годно.
[Профиль]  [ЛС] 
 
Ответить
Loading...
Error